Szybcy i wściekli 8 / The Fate of the Furious 2017 Dom i Letty cieszą się swym miesiącem miodowym, Brian i Mia wycofali się z gry, a reszcie ekipy udało się znaleźć oczyszczającą namiastkę normalnego życia. To właśnie wtedy pojawia się... | [P] X3 Terran Conflict | Most Rating








Info

user posted image
SUPERGIRL
STAGIONE 2
WEB-DLMUX 1080p

.: Dati Serie :.

Nazione: Stati Uniti d’America
Anno: 2015 – in produzione
Genere: fantascienza, supereroi, azione
Stagione: 2
Episodi: 22
Durata: 45 min circa
Lingua: ITA – ENG
Cast:
• Melissa Benoist: Kara Zor-El / Supergirl
• Mehcad Brooks: James “Jimmy” Olsen
• Chyler Leigh: Alexandra “Alex” Danvers
• Jeremy Jordan: Winslow “Winn” Schott
• David Harewood: Hank Henshaw / J’onn J’onzz
• Calista Flockhart: Cat Grant
• Chris Wood: Mon-El
• Floriana Lima: Maggie Sawyer

Supergirl il cui vero nome e’ Kara Zor-El, e’ cugina di Superman, adottata da una coppia terrestre da quando aveva 13 anni dopo essere stata catapultata dal pianeta morituro Krypton.. Rispetto al cugino, con il quale condivide molti super-poteri, dimostra da subito una certa difficolta’: ambientarsi con le usanze terrestri e soprattutto con gli umani (mortali). La ventiquattrenne superoina, che vive a National City, e’ combattuta se manifestare o nascondere i propri super-poteri. La sua Forza e’ nel contempo la sua debolezza. E’ vissuta come una “diversita’” che le preclude la normalita’

Info File

Info sul file

Supergirl.2x01.Le.Avventure.Di.Supergirl.ITA.ENG.1080p.WEB-DLMux.H264-LittleLinX.mkv
Format : Matroska
Format version : Version 4 / Version 2
File size : 1.69 GiB
Duration : 40mn 34s
Overall bit rate : 5 951 Kbps
Encoded date : UTC 2017-01-03 22:54:48
Writing application : mkvmerge v7.6.0 ('Garden of Dreams') 64bit built on Feb 8 2015 15:12:28
Writing library : libebml v1.3.1 + libmatroska v1.4.2
DURATION : 00:40:34.016000000
NUMBER_OF_FRAMES : 76063
NUMBER_OF_BYTES : 58416384
_STATISTICS_WRITING_APP : mkvmerge v7.6.0 ('Garden of Dreams') 64bit built on Feb 8 2015 15:12:28
_STATISTICS_WRITING_DATE_UTC : 2017-01-03 22:54:48
_STATISTICS_TAGS : BPS DURATION NUMBER_OF_FRAMES NUMBER_OF_BYTES

Video
ID : 1
Format : AVC
Format/Info : Advanced Video Codec
Format profile : [email protected]
Format settings, CABAC : Yes
Format settings, ReFrames : 4 frames
Codec ID : V_MPEG4/ISO/AVC
Duration : 40mn 34s
Bit rate : 5 257 Kbps
Width : 1 916 pixels
Height : 1 074 pixels
Display aspect ratio : 16:9
Frame rate : 25.000 fps
Color space : YUV
Chroma subsampling : 4:2:0
Bit depth : 8 bits
Scan type : Progressive
Bits/(Pixel*Frame) : 0.102
Stream size : 1.49 GiB (88%)
Language : English
Default : Yes
Forced : No
Color primaries : BT.709-5, BT.1361, IEC 61966-2-4, SMPTE RP177
Transfer characteristics : BT.709-5, BT.1361
Matrix coefficients : BT.709-5, BT.1361, IEC 61966-2-4 709, SMPTE RP177

Audio #1
ID : 2
Format : AC-3
Format/Info : Audio Coding 3
Mode extension : CM (complete main)
Codec ID : A_AC3
Duration : 40mn 34s
Bit rate mode : Constant
Bit rate : 192 Kbps
Channel(s) : 2 channels
Channel positions : Front: L R
Sampling rate : 48.0 KHz
Bit depth : 16 bits
Compression mode : Lossy
Stream size : 55.7 MiB (3%)
Title : ITA
Language : Italian
Default : Yes
Forced : Yes

Audio #2
ID : 3
Format : AC-3
Format/Info : Audio Coding 3
Mode extension : CM (complete main)
Codec ID : A_AC3
Duration : 40mn 34s
Bit rate mode : Constant
Bit rate : 384 Kbps
Channel(s) : 6 channels
Channel positions : Front: L C R, Side: L R, LFE
Sampling rate : 48.0 KHz
Bit depth : 16 bits
Compression mode : Lossy
Stream size : 111 MiB (6%)
Title : ENG
Language : English
Default : No
Forced : No

Text #1
ID : 4
Format : UTF-8
Codec ID : S_TEXT/UTF8
Codec ID/Info : UTF-8 Plain Text
Title : ITA - Forced
Language : Italian
Default : Yes
Forced : Yes

Text #2
ID : 5
Format : UTF-8
Codec ID : S_TEXT/UTF8
Codec ID/Info : UTF-8 Plain Text
Language : Italian
Default : No
Forced : No

Text #3
ID : 6
Format : UTF-8
Codec ID : S_TEXT/UTF8
Codec ID/Info : UTF-8 Plain Text
Language : English
Default : No
Forced : No

Trackers

http://tracker.leechers-paradise.org:6969/scrape
http://tracker.tntvillage.scambioetico.org:2710/scrape
http://tracker.tiny-vps.com:6969/scrape
http://tracker.mg64.net:2710/scrape
http://tracker.coppersurfer.tk:6969/scrape
http://IPv6.leechers-paradise.org:6969/scrape
http://tracker.internetwarriors.net:1337/scrape
http://tracker.openbittorrent.com/scrape